simples rewraping von AVCHD files

avconv -i 00078.m2ts -acodec copy -vcodec copy 00078.m4v

somit sollte dann final cut die m2ts dateien richtig importieren! 😉

 

avconv version 0.8.5-6:0.8.5-0ubuntu0.12.10.1, Copyright (c) 2000-2012 the Libav developers
built on Jan 24 2013 14:49:20 with gcc 4.7.2
[mpegts @ 0x19107a0] PES packet size mismatch
Input #0, mpegts, from '00078.m2ts':
Duration: 00:34:39.83, start: 0.801622, bitrate: 16499 kb/s
Program 1
Stream #0.0[0x1011]: Video: h264 (High), yuv420p, 1920x1080 [PAR 1:1 DAR 16:9], 50 fps, 50 tbr, 90k tbn, 50 tbc
Stream #0.1[0x1100]: Audio: ac3, 48000 Hz, 5.1, s16, 384 kb/s
Stream #0.2[0x1200]: Subtitle: pgssub
Output #0, ipod, to '00078.m4v':
Metadata:
encoder : Lavf53.21.1
Stream #0.0: Video: avc1 / 0x31637661, yuv420p, 1920x1080 [PAR 1:1 DAR 16:9], q=2-31, 90k tbn, 90k tbc
Stream #0.1: Audio: ac3, 48000 Hz, 5.1, 384 kb/s
Stream mapping:
Stream #0:0 -> #0:0 (copy)
Stream #0:1 -> #0:1 (copy)
Press ctrl-c to stop encoding


frame=99981 fps=303 q=-1.0 size= 3810726kB time=1999.24 bitrate=15614.7kbits/s